#TITLE:Hands Up;
#SUBTITLE:Expi3nze;
#ARTIST:2PM;
#TITLETRANSLIT:;
#SUBTITLETRANSLIT:;
#ARTISTTRANSLIT:;
#CREDIT:;
#BANNER:bn.png;
#BACKGROUND:bg.png;
#LYRICSPATH:;
#CDTITLE:cdtitle.png;
#MUSIC:Hands Up.mp3;
#OFFSET:-0.040;
#SAMPLESTART:23.560;
#SAMPLELENGTH:18.240;
#SELECTABLE:YES;
#BPMS:0.000=125.000,47.000=250.000,49.000=62.500,49.333=250.000,50.000=125.000,81.500=62.500,81.667=250.000,82.000=125.000,145.000=62.500,145.333=250.000,146.000=125.000,173.500=250.000,175.500=125.000,177.000=250.000,179.000=62.500,179.333=250.000,180.000=125.000,241.000=250.000,245.000=62.500,245.333=250.000,246.000=125.000,279.000=250.000,281.000=125.000;
#STOPS:;
#BGCHANGES:;
// cache tags:
#FIRSTBEAT:1.000;
#LASTBEAT:281.000;
#SONGFILENAME:Songs/Super Dancer Online/Hands Up (2PM)/Hands Up.sm;
#HASMUSIC:1;
#HASBANNER:1;
#MUSICLENGTH:137.564;
// end cache tags

//---------------dance-single - ----------------
#NOTES:
     dance-single:
     :
     Hard:
     20:
     1.000,1.000,1.000,0.313,0.709,666.000,273.000,43.000,0.000,116.000:
0000
0000
0000
0000
0200
0000
0000
1000
0000
0000
1000
0000
0000
0000
1000
0000
,
0000
1000
0000
0000
2300
0000
0000
0010
0000
0000
0010
0000
0000
0000
0010
0000
,
0000
0010
0000
0000
3020
0000
0000
1000
0000
0000
1000
0000
0000
0000
1000
0000
,
0000
1000
0000
0000
2030
0000
0000
0010
0000
0000
0010
0000
0020
0000
0230
0000
,
0301
0000
0001
0000
3012
0000
0100
0000
1000
0010
0100
0000
0010
0000
0100
0010
,
1000
0000
0100
0000
2013
0000
0100
0001
0010
0000
0100
0000
0001
0000
0001
0010
,
0001
0100
0001
0000
3020
0000
0100
0000
0001
0100
1000
0001
0100
0000
0001
0000
,
0100
1000
0001
0000
0230
0000
0010
0001
0010
0000
0010
0000
0010
0000
0001
0010
,
1000
0001
0010
0000
1300
1000
0010
0010
0100
0001
0001
0010
1001
0100
1000
1000
,
0010
0100
0100
0001
0010
0001
0100
1000
0010
0010
0100
0010
0100
0100
0001
0001
,
0100
1000
0100
1000
0010
0010
0100
0010
0010
1000
0100
1000
0010
0100
0001
0001
,
0100
0001
0100
0001
2001
0100
0010
0100
0010
0100
0001
0001
3202
0000
0000
0000
,
0303
0000
0000
0000
2000
0000
0000
0000
3111
0000
0000
1000
0111
1100
1000
0010
,
1100
0001
0010
0000
0111
0000
0111
0000
0111
0000
0010
1000
1100
0000
1000
0000
,
0100
0000
1100
1100
0001
1100
1100
0000
0100
0000
0100
0001
1110
0011
0001
0100
,
0011
1000
0100
0000
1110
0000
1110
0000
1110
0000
0100
0001
0011
0000
0001
0000
,
0010
0000
0011
0011
1000
0011
0011
0000
0010
0000
0010
1000
0111
1100
1000
0010
,
1100
0001
0010
0000
0111
0000
0111
0000
0111
0000
0010
1000
1100
0000
1000
0000
,
0100
0000
1100
1100
0001
1100
1100
0000
0100
0000
0100
0001
1110
0011
0001
0100
,
0011
1000
0100
0000
1110
0000
1110
0000
1110
0000
0100
0001
0011
0000
0001
0000
,
0010
0000
0011
0011
1000
0011
0011
0000
1110
0000
1000
0000
0011
0000
0011
0000
,
1000
1010
1001
1000
0011
1000
0011
0011
,
0000
1010
1010
0101
0101
0001
1100
1100
,
0001
0000
1100
0000
1100
0000
0001
0010
1001
0000
0010
0000
0011
0000
2010
0000
,
0000
3000
0011
0000
0011
0011
1000
0000
1010
0000
1001
0000
0011
0000
0012
0000
,
0000
0003
1100
0000
1100
0000
0001
0000
0101
0000
0001
0000
1100
0000
1102
0000
,
1000
0003
0100
0001
0011
0000
0110
0000
1100
0000
1000
0000
0011
0000
0011
0000
,
1000
0000
1010
0000
1010
0000
0001
0100
1000
0001
0010
0000
2011
0000
0000
0000
,
0000
0000
0000
0000
0010
0010
0100
0001
0011
0100
0100
0000
3011
0000
1000
0010
,
0100
0001
1100
0001
1100
0001
1000
0001
0011
0000
0110
0000
1100
0000
1000
0010
,
0100
0000
0011
1000
0011
1000
0100
0000
1000
0000
0010
0000
1011
0000
1001
0010
,
1000
0000
1001
0010
1000
0000
1000
0000
0011
0000
0110
0000
1100
0000
1000
0100
,
0110
1100
1001
0011
0101
1010
1001
0011
0001
0000
1100
0000
1100
0000
0001
0100
,
0011
1000
0011
0000
1110
0000
0100
1000
0010
0001
1100
0000
0011
1000
0011
1000
,
0100
1000
0100
1000
1011
0000
0011
0000
1000
0010
1001
0010
1001
0010
1001
0100
,
0010
0001
1100
0000
1100
0000
0011
0000
1100
0000
1100
0000
0001
0100
0001
0100
,
0002
0200
2303
0000
3111
0000
0111
0111
,
0000
0111
0111
0000
1101
0000
1011
1011
,
0000
0000
0111
0000
0111
1000
0000
0000
0111
0000
0000
0000
1011
0000
1011
0000
,
0000
1101
1101
0000
0111
0000
0111
0111
,
0000
0000
1101
0000
1101
1100
1100
0000
1110
0000
0000
0000
1110
0000
1110
0000
,
0000
1011
1011
0000
1110
0000
1110
1110
,
0000
0000
0111
0000
0111
1000
0000
0000
0111
0000
0000
0000
1101
0000
1101
0000
,
0000
1101
2201
0000
0000
3320
0000
0000
,
0000
0000
0000
0000
0000
0000
0000
0000
0000
0000
0000
0000
0200
0000
0000
0300
,
1131
0000
0000
1000
0111
1100
1000
0010
1100
0001
0010
0000
0111
0000
0111
0000
,
0111
0000
0010
1000
1100
0000
1000
0000
0100
0000
1100
1100
0001
1100
1100
0000
,
0100
0000
0100
0001
1110
0011
0001
0100
0011
1000
0100
0000
1110
0000
1110
0000
,
1110
0000
0100
0001
0011
0000
0001
0000
0010
0000
0011
0011
1000
0011
0011
0000
,
0010
0000
0010
1000
0111
1100
1000
0010
1100
0001
0010
0000
0111
0000
0111
0000
,
0111
0000
0010
1000
1100
0000
1000
0000
0100
0000
1100
1100
0001
1100
1100
0000
,
0100
0000
0100
0001
1110
0011
0001
0100
0011
1000
0100
0000
1110
0000
1110
0000
,
1110
0000
0100
0001
0011
0000
0001
0000
0010
0000
0011
0011
1000
0011
0011
0000
,
2010
0000
0000
0200
0300
0100
0200
0300
,
3020
0000
0000
2000
3000
0002
0003
1000
,
2030
0000
0000
0020
0030
0020
0030
0010
,
3020
0000
0000
0000
0000
0000
0200
0000
0300
0000
0200
0000
0300
0100
0100
0000
,
1131
0000
1000
1000
1000
1000
1011
1000
1000
1000
1011
1000
1000
1000
1000
1000
,
1011
1000
1000
1000
1000
1000
1011
1000
1000
1000
1011
1000
1000
1011
1000
1000
,
1011
1000
1000
1000
1000
1000
1011
1000
1000
1000
1011
1000
1000
1000
1000
1000
,
2211
0000
0000
0300
,
0000
0000
0000
0000
0200
0000
0000
0300
3111
0000
0000
1000
0111
1100
1000
0010
,
1100
0001
0010
0000
0111
0000
0111
0000
0111
0000
0010
1000
1100
0000
1000
0000
,
0100
0000
1100
1100
0001
1100
1100
0000
0100
0000
0100
0001
1110
0011
0001
0100
,
0011
1000
0100
0000
1110
0000
1110
0000
1110
0000
0100
0001
0011
0000
0001
0000
,
0010
0000
0011
0011
1000
0011
0011
0000
0010
0000
0010
1000
0111
1100
1000
0010
,
1100
0001
0010
0000
0111
0000
0111
0000
0111
0000
0010
1000
1100
0000
1000
0000
,
0100
0000
1100
1100
0001
1100
1100
0000
0100
0000
0100
0001
1110
0011
0001
0100
,
0011
1000
0100
0000
1110
0000
1110
0000
1110
0000
0100
0001
0011
0000
0001
0000
,
0010
0000
0011
0011
1000
0011
0011
0000
1110
0000
1110
0000
2220
0000
0000
0000
,
0000
0000
0000
3330
1110
0000
0000
0000
0000
0000
0000
0000
0000
0000
0000
0000
,
0000
0000
0000
0000
,
0000
0000
0000
0000
,
0000
0000
0000
0000
,
0000
0000
0000
0000
,
0000
0000
0000
0000
;
